#TITLE:Marbles;
#SUBTITLE:Marble Madness;
#ARTIST:Hrvatski;
#TITLETRANSLIT:;
#SUBTITLETRANSLIT:;
#ARTISTTRANSLIT:;
#CREDIT:;
#BANNER:marbles-bn.jpg;
#BACKGROUND:Marbles-bg.jpg;
#LYRICSPATH:;
#CDTITLE:!macTitle.png;
#MUSIC:Marbles.mp3;
#OFFSET:-0.105;
#SAMPLESTART:100.000;
#SAMPLELENGTH:12.000;
#SELECTABLE:YES;
#BPMS:0.000=224.981;
#STOPS:;
#BGCHANGES:;
// cache tags:
#FIRSTBEAT:0.000;
#LASTBEAT:566.000;
#SONGFILENAME:Songs/Music V.I.P ^_^/Marbles (MacGravel)/Marbles.sm;
#HASMUSIC:1;
#HASBANNER:1;
#MUSICLENGTH:152.328;
// end cache tags

//---------------dance-single - ----------------
#NOTES:
     dance-single:
     :
     Hard:
     12:
     1.000,1.000,1.000,0.125,0.453,1009.000,213.000,19.000,0.000,0.000:

1000
0001
1000
0001
,
1000
0000
0000
0000
0001
0000
1000
0001
1000
0000
0001
0000
1000
0000
0001
0000
,
1000
0000
0000
0000
0001
0000
0000
0000
1000
0000
0000
0000
0001
0000
0000
0000
0000
0000
0100
0000
0000
0000
0000
0000
0010
0000
0000
1000
0000
0000
0010
0000
0000
1000
0000
0000
0010
0000
0000
0000
0000
0000
0000
0000
0000
0000
0000
0000
,
0100
0000
0000
0000
1000
0000
0001
0000
0100
0010
0100
0010
0100
0000
0100
0000
,
0100
0000
0010
0000
1000
0000
0001
0000
0000
0000
0000
0000
0100
0000
0000
0000
0000
0000
0010
0000
0000
0100
0000
0000
,
0010
0000
0000
0000
1000
0001
1000
0000
1000
0000
1000
0000
1000
0000
1000
0000
,
1000
0001
1000
0000
0100
0000
0000
0000
0010
0000
0000
0000
0001
0000
0000
0000
,
1000
0001
1000
0010
1000
0100
1000
0010
1000
0000
0000
0000
0001
0000
0000
0000
,
1000
0100
0010
0001
,
0010
0000
0000
0000
0100
0000
1000
0001
1000
0000
0010
0000
0100
0000
0001
0000
,
0100
0000
0010
0000
0100
0000
0001
0000
0000
0100
0000
0000
0010
0000
0000
1000
0000
0000
0001
0000
0000
0000
0000
0000
,
1000
0000
0000
0000
0100
0000
0010
0000
0001
0010
0001
0000
1000
0000
0000
0000
,
0100
0000
0010
0000
0100
0000
0010
0000
0000
0000
0000
0000
0010
0000
0000
0000
0000
0000
0010
0000
0000
0001
0000
0000
,
0010
0100
1000
0010
0100
0001
0010
0100
,
0010
0001
1000
0010
1000
0100
1000
0010
,
0100
0001
0100
0010
0100
0001
0010
0100
0010
0000
0000
0000
0100
0000
0000
0000
,
1000
1000
1000
1000
,
0001
0000
0000
0000
0001
0000
0100
0001
0100
0000
0001
0000
0100
0000
0000
0000
,
0001
0000
0000
0000
0010
0000
0000
0000
0100
0000
0000
0000
1000
0000
0000
0000
0000
0000
0010
0000
0000
0000
0000
0000
0100
0000
0000
0000
0000
0000
0001
0000
0000
0000
0000
0000
0010
0000
0000
0100
0000
0000
0010
0000
0000
0000
0000
0000
,
0001
0000
0001
0010
0100
1000
1001
0000
,
1000
0000
0001
0000
1000
0000
0001
0000
0000
0000
0000
0000
0010
0000
0000
0000
0000
0000
0100
0000
0000
1000
0000
0000
,
0010
0100
0010
1000
0001
0000
1000
0000
0100
0000
0100
0000
0010
0000
0010
0000
,
0001
1000
0100
0000
0010
0000
0001
0000
1000
0000
0010
0000
0100
0000
0001
0000
,
0010
0100
1000
0010
0100
0010
1000
0100
0010
0000
0000
0000
0000
0000
0000
0000
,
1000
1000
1000
1000
,
0001
0000
0000
0000
0001
1000
0001
0000
0100
0000
0010
0000
1000
0000
0100
0000
,
0010
0000
0001
0000
0100
0000
0010
0000
0000
1000
0000
0000
0100
0000
0000
0000
0000
0000
0010
0000
0000
0000
0000
0000
,
0100
0000
1000
0100
1000
0000
0020
0030
,
1000
0000
0100
0000
0010
0000
0001
0000
0000
0000
0000
0000
0001
0000
0000
0000
0000
0000
0001
0000
0000
1000
0000
0000
,
0001
0010
0100
0000
1000
0000
0001
0000
0100
0000
0010
0000
0100
0000
0001
0000
,
1000
0100
0020
0030
0002
0003
0000
0000
,
1000
0100
0010
0001
0010
0100
1000
0100
0010
0000
0000
0000
0000
0000
0000
0000
,
1001
0000
0000
0000
0000
0100
0010
0001
,
1010
0000
0000
0000
0000
1000
0001
0100
,
0010
1000
0101
0000
0000
0000
0000
0000
,
0000
0001
1000
0010
0100
0001
0100
0010
,
0100
0001
0010
0100
0010
0001
0100
0010
,
1000
0001
0100
0010
0100
0010
0100
0010
,
0110
0100
0010
0000
0000
0000
0000
0000
0000
0000
1000
0000
0100
0000
0010
0000
,
0001
0000
0010
0000
0001
0000
0010
0000
0000
0000
0000
0000
0000
0000
0000
0001
0000
0000
0100
0000
0000
0010
0000
0000
,
0100
0000
0000
0000
0001
0000
0000
0000
0101
0000
0000
0000
0000
1010
0000
0000
0000
0000
0110
0000
0000
0000
0000
1001
0000
0000
0000
0000
0000
0000
0000
0000
,
0000
0001
0010
0100
1000
0010
1000
0001
,
0100
0010
0100
0001
0010
0100
1000
0010
,
1000
0001
0100
0010
0100
0010
0100
0010
,
0110
0000
1001
0000
1100
0100
1010
0001
,
1100
0000
0000
0000
0110
0000
0000
0000
0001
0010
0001
0000
0110
0000
0010
0000
,
0001
1000
0001
0110
0000
0000
0101
0000
0000
0110
0000
0000
,
1000
0001
1000
0001
1010
0000
0001
0000
1100
0000
0100
0000
0110
0000
0010
0000
,
0011
1001
0110
1001
0101
0100
0110
0010
,
0101
0100
1010
0101
0101
1000
0011
0100
,
0110
0000
1100
0000
1010
0010
1001
0100
,
0110
0000
0101
0000
0110
0010
0011
0100
,
0110
1000
0011
0000
1100
0000
1010
0000
,
1001
0001
1010
0100
0101
0010
0110
1000
,
0011
0001
0110
0100
1001
0010
1100
1000
,
1010
0001
0101
1000
0110
0010
0011
0001
,
1000
0000
0000
0001
0000
0000
0000
1000
,
0010
0000
0000
0000
0000
1000
0000
0010
,
0000
0000
0100
0000
0000
0000
0000
0001
,
0000
0000
0000
0001
1000
0000
1000
0100
,
0010
0001
0100
0010
0100
0100
0100
0000
,
0001
0000
0000
0000
0000
1000
0000
0000
,
0100
0000
0010
0000
0001
0000
1000
0100
,
0010
0001
0100
0010
0100
0001
0010
0100
,
0010
0000
0000
0000
1010
0000
0000
0101
,
0000
0000
0000
0011
0101
0000
0000
0000
,
0000
1001
0000
0101
0000
0000
0020
0030
,
0000
0000
0000
2001
3000
0000
0000
1010
,
1100
0000
0100
0010
1000
0010
0100
0010
,
1001
1000
1000
0000
0101
0000
0000
0000
,
0000
0000
1010
0000
0000
0000
0000
0000
0001
0010
0001
0010
0101
0000
0000
0000
,
0010
0000
0001
0000
0010
0000
0001
0000
0100
0000
0001
0000
0100
0000
0010
0000
1000
0000
0001
0000
0000
0010
0000
0000
,
1100
0000
0000
1000
0000
0000
0010
0000
1000
0000
0001
0000
0110
0000
0000
0000
1001
0000
0000
0000
1100
0000
0000
0000
,
1001
0000
0110
1000
0101
0000
0000
0001
,
0100
0000
0000
0000
0000
0000
1100
0000
0000
0000
0010
0000
0011
0000
0000
0001
0000
0000
0000
0000
0000
0100
0000
0000
,
1001
0000
0110
0000
0101
0000
0000
1000
,
0000
0000
1100
1000
0101
0000
0001
0010
,
0101
1000
1010
0100
0110
0010
0010
0000
,
1000
0000
0000
0000
0000
0000
0110
0000
0000
0000
0100
0000
0110
0000
0000
0001
0000
0000
0000
0000
0000
0000
0001
0000
,
1010
0000
0101
0000
1010
0000
0001
0010
,
0100
1000
1010
0100
0011
1000
0100
0010
,
0101
0000
1010
0000
1001
0000
0000
0100
,
0000
0000
0000
0000
0000
0000
1010
0000
0000
0010
0000
0000
0101
0000
0000
0000
0000
0000
0000
0000
0000
0000
0100
0000
,
0101
0000
0000
0001
0000
0000
1010
0000
0000
0100
0000
0000
0101
0000
0000
0000
0000
0000
0010
0000
0000
0000
1000
0000
,
1001
0000
0000
0000
0000
0000
0101
0000
0000
0001
1000
0000
0110
0000
0000
0000
0000
0000
0001
0000
0000
1000
0100
0000
,
1001
0000
0101
0100
0011
1000
0100
0010
,
0001
0000
0000
0001
0000
0000
1001
0000
0000
0000
0010
0000
1100
0000
0000
0000
0000
0000
0001
0000
0000
0000
1000
0000
,
0101
0000
0000
0010
0000
0000
1010
0000
0000
0000
0000
0000
0110
0000
0000
0000
1000
0000
1010
0000
0000
0000
0000
0000
,
1000
0000
0000
0000
0000
0000
1001
0000
0000
0100
0001
0000
0110
0000
0000
1000
0000
0000
0100
0000
0000
0010
0000
0000
,
0101
1000
0110
0010
1100
0000
0000
0000
,
0001
0010
0100
1000
0010
1000
0001
0100
,
0010
0100
0001
0010
0100
0010
0001
1000
,
0010
1000
0100
0010
0001
0010
0100
0010
,
0001
0100
1010
0001
0010
0100
0001
1000
,
0010
1000
0100
0010
0001
0010
0100
1000
,
0010
1010
0101
0110
0010
0100
0001
0010
,
0100
0000
1000
0000
0001
0000
1000
0000
0100
0010
0001
1000
0010
0100
0001
1000
,
0100
0010
0100
1000
0001
0100
0010
0100
0001
0000
0000
0000
1001
0000
0100
0000
,
0110
1001
0110
1010
0110
0001
1010
0100
,
0110
0100
1001
0110
1010
0001
1100
0010
,
0100
0002
0000
0003
0100
0000
0010
0000
,
0002
0003
0010
0000
0100
0000
1020
0030
0101
0000
0100
0000
0010
0000
0100
0000
,
0002
0003
0100
0000
0010
0000
1000
0000
0002
0003
0010
0000
1100
0000
0110
0000
,
0001
1010
0100
2000
0000
3000
0001
0000
,
0110
0000
0001
0000
1000
0000
0001
0000
1010
0100
0101
0000
1001
0000
0110
0000
,
1010
0001
0110
0010
0101
0001
1010
0100
,
0011
0001
0101
0020
0000
0030
1000
0000
,
0101
0000
0010
0001
0100
0010
0100
0001
,
1010
0110
1000
0001
1000
0100
1000
0010
,
1000
0001
0100
0010
0100
0002
0000
0003
,
1001
0000
0100
0000
0011
0000
0010
0001
0100
0001
1010
0000
1001
0000
0100
0001
,
1000
0001
1010
0000
0101
0000
0110
0000
0101
0000
1010
0100
0001
0000
1100
0000
,
0011
0000
1100
0000
0001
0010
0100
0000
0010
0000
0200
0000
0000
0000
0300
0000
,
1001
0000
0000
0000
0010
0000
0000
0000
0100
0000
1000
0001
1000
0001
0010
0000
,
0100
0000
0010
0001
0010
0001
0100
0000
0010
0000
1000
0010
1000
0010
0100
0000
,
0010
0000
0100
0001
0100
0001
0010
0000
0100
0000
1000
0000
0100
0000
0020
0000
,
0001
0000
0031
0000
0001
0000
0010
0100
0010
0000
0010
0000
1000
0000
1000
0000
,
0011
0011
0100
0011
0011
0100
0010
1000
,
0001
0100
1010
1100
0001
0010
0100
2000
,
0000
3000
0010
0000
0100
0000
1000
0010
,
1000
0001
0100
0010
0100
0001
0010
0100
,
0010
0001
1000
0100
1000
0010
1000
0001
,
0100
0020
0000
0030
1001
0100
0010
0101
,
0100
0010
0100
0001
1010
0000
0101
1000
,
0110
1010
0100
0110
0001
0100
0010
0000
,
0100
0001
0010
0000
0100
1000
0110
0000
,
0001
1010
0100
0010
0001
1000
0010
1000
,
0001
0100
0010
1000
0101
0000
0010
0100
,
1100
0011
1000
0110
0101
0001
1010
0000
,
0101
1000
0110
0000
1010
0100
0120
0030
,
1001
0100
1010
0100
1001
0110
0110
1010
,
0011
0101
1010
0110
1001
0110
1010
0110
,
1100
0011
1100
1010
1010
0011
0101
0000
,
0001
0010
0100
0000
1000
0010
0100
0000
,
0001
0100
0010
0100
0001
0010
0100
1000
,
0010
1000
0001
0100
0010
0000
0100
0001
,
0010
0100
0010
0001
0010
0100
1000
0000
,
0010
1000
0001
1000
0010
0100
0001
0010
0001
1000
0100
1000
0010
0100
0001
1000
,
0100
0010
0100
1000
0010
0100
0001
1000
0001
0010
0001
0010
0100
1000
0100
1000
,
0010
0100
0010
0100
0001
1000
0001
1000
0100
0010
0100
0010
0001
0100
0001
0100
,
0010
1000
0010
1000
0100
0010
0100
0010
0001
0010
0001
0010
0100
1000
0100
1000
,
0002
0000
0003
0000
;
